PSX Problem

Discussion in 'Misc PSX Discussion' started by thatnorschick, Nov 21, 2016.

  1. thatnorschick

    thatnorschick New Member

    Messages:
    1
    Likes Received:
    0
    So I'm using psxfin v1.13 now. Currently works the best out of epsxe and other psx emulators,
    but I have a problem:
    It gives me an error message when I try to load the .cue file:

    Code:
    CD not usable: Failed to open the file
    What does this mean? The game has a series of .bin files:

    Twisted Metal 4 (Track 01).bin
    Twisted Metal 4 (Track 02).bin
    Twisted Metal 4 (Track 03).bin
    all the way to
    Twisted Metal 4 (Track 23).bin

    and only has one .cue file:

    Twisted Metal 4.cue

    If I just load the first Twisted Metal 4 (Track 01).bin file, the "cmd" window will appear a message saying:
    Code:
    cuebin: No .cue file found! Will attempt to guess format assuming single track.
    cuebin: Seems to be MODE2/2352
    And it'll load the game, but with no audio.

    I read somewhere about opening the .cue file with a text editor like notepad and checking if something is similar to the files .bin
    Well, I opened the .cue file with notepad it reads this:

    Code:
    FILE "Twisted Metal 4 (Track 01).bin" BINARY
      TRACK 01 MODE2/2352
        INDEX 01 00:00:00
    FILE "Twisted Metal 4 (Track 02).bin" BINARY
      TRACK 02 AUDIO
        INDEX 00 00:00:00
        INDEX 01 00:02:00
    FILE "Twisted Metal 4 (Track 03).bin" BINARY
      TRACK 03 AUDIO
        INDEX 00 00:00:00
        INDEX 01 00:02:00
    FILE "Twisted Metal 4 (Track 04).bin" BINARY
      TRACK 04 AUDIO
        INDEX 00 00:00:00
        INDEX 01 00:02:00
    FILE "Twisted Metal 4 (Track 05).bin" BINARY
      TRACK 05 AUDIO
        INDEX 00 00:00:00
        INDEX 01 00:02:00
    FILE "Twisted Metal 4 (Track 06).bin" BINARY
      TRACK 06 AUDIO
        INDEX 00 00:00:00
        INDEX 01 00:02:00
    FILE "Twisted Metal 4 (Track 07).bin" BINARY
      TRACK 07 AUDIO
        INDEX 00 00:00:00
        INDEX 01 00:02:00
    FILE "Twisted Metal 4 (Track 08).bin" BINARY
      TRACK 08 AUDIO
        INDEX 00 00:00:00
        INDEX 01 00:02:00
    FILE "Twisted Metal 4 (Track 09).bin" BINARY
      TRACK 09 AUDIO
        INDEX 00 00:00:00
        INDEX 01 00:02:00
    FILE "Twisted Metal 4 (Track 10).bin" BINARY
      TRACK 10 AUDIO
        INDEX 00 00:00:00
        INDEX 01 00:02:00
    FILE "Twisted Metal 4 (Track 11).bin" BINARY
      TRACK 11 AUDIO
        INDEX 00 00:00:00
        INDEX 01 00:02:00
    FILE "Twisted Metal 4 (Track 12).bin" BINARY
      TRACK 12 AUDIO
        INDEX 00 00:00:00
        INDEX 01 00:02:00
    FILE "Twisted Metal 4 (Track 13).bin" BINARY
      TRACK 13 AUDIO
        INDEX 00 00:00:00
        INDEX 01 00:02:00
    FILE "Twisted Metal 4 (Track 14).bin" BINARY
      TRACK 14 AUDIO
        INDEX 00 00:00:00
        INDEX 01 00:02:00
    FILE "Twisted Metal 4 (Track 15).bin" BINARY
      TRACK 15 AUDIO
        INDEX 00 00:00:00
        INDEX 01 00:02:00
    FILE "Twisted Metal 4 (Track 16).bin" BINARY
      TRACK 16 AUDIO
        INDEX 00 00:00:00
        INDEX 01 00:02:00
    FILE "Twisted Metal 4 (Track 17).bin" BINARY
      TRACK 17 AUDIO
        INDEX 00 00:00:00
        INDEX 01 00:02:00
    FILE "Twisted Metal 4 (Track 18).bin" BINARY
      TRACK 18 AUDIO
        INDEX 00 00:00:00
        INDEX 01 00:02:00
    FILE "Twisted Metal 4 (Track 19).bin" BINARY
      TRACK 19 AUDIO
        INDEX 00 00:00:00
        INDEX 01 00:02:00
    FILE "Twisted Metal 4 (Track 20).bin" BINARY
      TRACK 20 AUDIO
        INDEX 00 00:00:00
        INDEX 01 00:02:00
    FILE "Twisted Metal 4 (Track 21).bin" BINARY
      TRACK 21 AUDIO
        INDEX 00 00:00:00
        INDEX 01 00:02:00
    FILE "Twisted Metal 4 (Track 22).bin" BINARY
      TRACK 22 AUDIO
        INDEX 00 00:00:00
        INDEX 01 00:02:00
    FILE "Twisted Metal 4 (Track 23).bin" BINARY
      TRACK 23 AUDIO
        INDEX 00 00:00:00
        INDEX 01 00:02:00
    
    Seems like its all right, but yet it still doesn't load.
    Anyway to fix this?

    Other games like Final Fantasy IX works fine, its files are:

    Final Fantasy IX (Disc 1) (v1.1).bin
    Final Fantasy IX (Disc 1) (v1.1).cue
    Final Fantasy IX (Disc 1) (v1.1).hwf

    And its .cue file reads this:

    Code:
    FILE "Final Fantasy IX (Disc 1) (v1.1).bin" BINARY
      TRACK 01 MODE2/2352
        INDEX 01 00:00:00
    
    This loads perfectly, with audio and everything.

    But not Twisted Metal 4.
    Other games like Winner's Circle is similar, expect with Winner's circle, it won't load the first intro movie.

    Any help is appreciated.
  2. NGEmu.com Advertisement

Share This Page